Breaking Bad Temporada 5 [8/16]


>>>Click aquí para Descargar Breaking Bad Temporada 5 [8/16]<<<

Breaking Bad Temporada 5 [8/16] [mega][Serie-Temporada Completa]




Mediainfo:


Código:
General
Format : Matroska
Format version : Version 2
File size : 1.67 GiB
Duration : 47mn 21s
Overall bit rate : 5 061 Kbps
Movie name : Breaking.Bad.S05E06.Buyout.720p.WEB.DL.DD5.1.H.264.CtrlHD.mkv 9622
Encoded date : UTC 2012-11-09 00:41:05
Writing application : mkvmerge v4.9.1 (‘Ich will’) creado el Jul 11 2011 23:53:15
Writing library : libebml v1.2.1 + libmatroska v1.1.1

Video
ID : 1
Format : AVC
Format/Info : Advanced Video Codec
Format profile : [email protected]
Format settings, CABAC : No
Format settings, ReFrames : 2 frames
Codec ID : V_MPEG4/ISO/AVC
Duration : 47mn 21s
Bit rate : 4 192 Kbps
Width : 1 280 pixels
Height : 720 pixels
Display aspect ratio : 16:9
Frame rate : 23.976 fps
Color space : YUV
Chroma subsampling : 4:2:0
Bit depth : 8 bits
Scan type : Progressive
Bits/(Pixel*Frame) : 0.190
Stream size : 1.39 GiB (83%)
Title : Breaking Bad 5×06.Buyout.[720p.HDiTunes.x264.Dual][by.xevious]
Language : English
Default : Yes
Forced : No
Color primaries : BT.709-5, BT.1361, IEC 61966-2-4, SMPTE RP177
Transfer characteristics : BT.709-5, BT.1361
Matrix coefficients : BT.709-5, BT.1361, IEC 61966-2-4 709, SMPTE RP177

Audio #1
ID : 2
Format : AC-3
Format/Info : Audio Coding 3
Mode extension : CM (complete main)
Codec ID : A_AC3
Duration : 47mn 21s
Bit rate mode : Constant
Bit rate : 384 Kbps
Channel(s) : 5 channels
Channel positions : Front: L R, Side: L R, LFE
Sampling rate : 48.0 KHz
Bit depth : 16 bits
Compression mode : Lossy
Stream size : 130 MiB (8%)
Title : Spanish 4.1
Language : Spanish
Default : Yes
Forced : Yes

Audio #2
ID : 3
Format : AC-3
Format/Info : Audio Coding 3
Mode extension : CM (complete main)
Codec ID : A_AC3
Duration : 47mn 21s
Bit rate mode : Constant
Bit rate : 384 Kbps
Channel(s) : 6 channels
Channel positions : Front: L C R, Side: L R, LFE
Sampling rate : 48.0 KHz
Bit depth : 16 bits
Compression mode : Lossy
Stream size : 130 MiB (8%)
Language : English
Default : No
Forced : No

Text #1
ID : 4
Format : UTF-8
Codec ID : S_TEXT/UTF8
Codec ID/Info : UTF-8 Plain Text
Language : Spanish
Default : No
Forced : No

Text #2
ID : 5
Format : UTF-8
Codec ID : S_TEXT/UTF8
Codec ID/Info : UTF-8 Plain Text
Language : English
Default : No
Forced : No

Descarga:

Uploaded.to:


Código:
1. http://***********/aei32bf0

http://***********/fcfz33hz

2. http://***********/xaboz2xt

http://***********/buwzzc6v

3. http://***********/8ffc40nt

http://***********/51p414pu

4. http://***********/5c35rkj1

http://***********/se7177i6

5. http://***********/to68rm0e

http://***********/k9tnrahv

6. http://***********/l48aftpt

http://***********/b7mjqegi

7. http://***********/i8dnrh5r

http://***********/7qzv5f25

8. http://***********/wax063ea

http://***********/0ggmz3jr

Extabit:


Código:
1. http://***********/file/28chmnj4w0lmr/

http://***********/file/28ch3of5g25qr/

2. http://***********/file/28ch3of5ijvsj/

http://***********/file/28ch3of9srgoj/

3. http://***********/file/28chmnj510klv/

http://***********/file/28chmnj511pr7/

4. http://***********/file/28chmky14a7s3/

http://***********/file/28chmky149y8j/

5. http://***********/file/28chmkwjv2qgz/

http://***********/file/28chmky15j2oj/

6. http://***********/file/28chmky5fps2r/

http://***********/file/28chmky5gd4tf/

7. http://***********/file/28chmkwjtub77/

http://***********/file/28chmky5lc53n/

8. http://***********/file/28chmlt8ed2s3/
http://***********/file/28chmls8qtv9f/

Breaking Bad Temporada 5 [8/16] [mega][Serie-Temporada Completa]


Deja tu comentario!