El Baile de los Vampiros[Dvdrip][Latino][1967]


>>>Click aquí para Descargar El Baile de los Vampiros[Dvdrip][Latino][1967]<<<

El Baile de los Vampiros[Dvdrip][Latino][1967] [DVDRip Español Latino][Mega]


TÍTULO ORIGINALance of the Vampires (The Fearless Vampire Killers, or Pardon Me, But Your Teeth Are in My Neck)
AÑO: 1967
DURACIÓN: 111 min.
DIRECTOR:Roman Polanski
GUIÓN:Gérard Brach, Roman Polanski
MÚSICA:Christopher Komeda (AKA Krysztof T. Komeda)
FOTOGRAFÍAouglas Slocombe
REPARTO:Jack MacGowran, Roman Polanski, Sharon Tate, Alfie Bass, Ferdy Mayne
PRODUCTORA:Coproducción Reino Unido-EEUU; Metro-Goldwyn-Mayer
GÉNERO:Comedia | Vampiros. Parodia. Comedia de terror
SINOPSIS
El doctor Abronsius y su ayudante Alfred, viajan por Transilvania para confirmar una teoría que afirma la existencia real de los vampiros y que tropieza con el escepticismo de sus colegas de la Universidad de Könisberg.
Se detienen en una posada, cuyas paredes y ventanas están cubiertas de ristras de ajos, pero tanto los parroquianos como el posadero afirman que no existe ningún castillo por los alrededores y justifican la presencia de los ajos como un motivo ornamental típico de la región. El rapto de la hija del posadero y la vampirización de éste proporcionan a los protagonistas pistas suficientes para llegar al castillo. (FILMAFFINITY)






Spoiler


Descargas-Directas/baile.vampi.1967.avi
Format : AVI
Format/Info : Audio Video Interleave
File size : 700 MiB
Duration : 1h 43mn
Overall bit rate mode : Variable
Overall bit rate : 950 Kbps
Writing application : Nandub v1.0rc2
Writing library : Nandub build 1852/release
Video
ID : 0
Format : MPEG-4 Visual
Format profile : Advanced Simple@L4
Format settings, BVOP : 2
Format settings, QPel : No
Format settings, GMC : No warppoints
Format settings, Matrix : Default (H.263)
Codec ID : XVID
Codec ID/Hint : XviD
Duration : 1h 43mn
Bit rate : 828 Kbps
Width : 592 pixels
Height : 240 pixels
Display aspect ratio : 2.467
Frame rate : 25.000 fps
Color space : YUV
Chroma subsampling : 4:2:0
Bit depth : 8 bits
Scan type : Progressive
Compression mode : Lossy
Bits/(Pixel*Frame) : 0.233
Stream size : 610 MiB (87%)
Writing library : XviD 1.1.0 (UTC 2005-11-22)
Audio
ID : 1
Format : MPEG Audio
Format version : Version 1
Format profile : Layer 3
Mode : Joint stereo
Mode extension : MS Stereo
Codec ID : 55
Codec ID/Hint : MP3
Duration : 1h 43mn
Bit rate mode : Variable
Bit rate : 109 Kbps
Nominal bit rate : 128 Kbps
Channel(s) : 2 channels
Sampling rate : 48.0 KHz
Compression mode : Lossy
Stream size : 80.4 MiB (11%)
Alignment : Aligned on interleaves
Interleave, duration : 24 ms (0.60 video frame)
Interleave, preload duration : 161 ms
Writing library : LAME3.90.
Encoding settings : -m j -V 4 -q 2 -lowpass 17.6 –abr 128



Servidor(es) : Rapidgator,DDLStorage,Uploaded.net,Bitshare,Cloudz er…INTERCAMBIABLES.
Formato Compresión : Comprimido y partido en 3 partes con winrar





Código:
http://***********/nc15u3hx


Código:
http://***********.com/files/pth0w36c/baile.vampi.1967.avi.rar.html



Código:
http://***********/dsjp2bvs

http://***********/vw7ay9o5

http://***********/xbx9bn7c


Código:
http://***********.net/file/67079508/baile.vampi.1967.avi.part1.rar.html

http://***********.net/file/67079527/baile.vampi.1967.avi.part2.rar.html

http://***********.net/file/67079531/baile.vampi.1967.avi.part3.rar.html


Código:
http://***********.com/files/atpt3554/baile.vampi.1967.avi.part1.rar.html

http://***********.com/files/3mv1z6w3/baile.vampi.1967.avi.part2.rar.html

http://***********.com/files/3qdhgp5o/baile.vampi.1967.avi.part3.rar.html


Código:
http://www.ddlstorage.com/gs0dfdtara7d/baile.vampi.1967.avi.part1.rar.htm

http://www.ddlstorage.com/eik32led5qx0/baile.vampi.1967.avi.part2.rar.htm

http://www.ddlstorage.com/c21ikljffz6d/baile.vampi.1967.avi.part3.rar.htm


Código:
http://clz.to/mryajsig

http://clz.to/mhl681ng

http://clz.to/xln9bva4

El Baile de los Vampiros[Dvdrip][Latino][1967] [DVDRip Español Latino][Mega]

- la danza de los vampiros descargar - descargar la danza de los vampiros audio latino - la danza de los vampiros online - la danza de los vampiros online español latino - descargar el baile de los vampiros - the fearless vampire killers online español latino

Deja tu comentario!