The Killing T.1 Español


^^^Descargar The Killing T.1 Español^^^

The Killing T.1 Español [mega][Serie-Temporada Completa]

The Killing | Temporada 1 | Capitulos [13/13]



· · · · · · · · · · · · · · · : : | Ficha Técnica | : : · · · · · · · · · · · · · · ·

Título: The Killing
Título Original: The Killing
Año: 2011
País: USA
Duración: 45 min.
Género: Drama | Thriller
Creador: Veena Cabreros Sud
Productora: AMC / Fox Television Studios


· · · · · · · · · · · · · · · : : | Reparto | : : · · · · · · · · · · · · · · ·

✭ Mireille Enos | ✭ Joel Kinnaman | ✭ Michelle Forbes | ✭ Bill Campbell | ✭ Liam James | ✭ Annie Corley | ✭ Brandon Jay McLaren | ✭ Eric Ladin | ✭ Kristin Lehman | ✭ Chad Willett


· · · · · · · · · · · · · · · : : | Sinopsis | : : · · · · · · · · · · · · · · ·

Sinopsis: Thriller basado en la obra danesa ‘Forbrydelsen’. En la serie veremos cómo se desarrolla la investigación del asesinato de una joven desde el punto de vista de todos los personajes implicados, desde sus familiares a los agentes de policía encargados del caso, pasando, por supuesto, por los sospechosos.


WebSite http://down.megadvdrip.net/de.php?h=aHR0cDovL3d3dy5mb3hjcmltZS5lcy90aGVraWxsaW5n
FilmAffinity http://down.megadvdrip.net/de.php?h=aHR0cDovL3d3dy5maWxtYWZmaW5pdHkuY29tL2VzL2ZpbG0yNTY1NTcuaHRtbA==
IMDB http://down.megadvdrip.net/de.php?h=aHR0cDovL3d3dy5pbWRiLmVzL3RpdGxlL3R0MTYzNzcyNy8=
YouTube http://down.megadvdrip.net/de.php?h=aHR0cDovL3d3dy55b3V0dWJlLmNvbS92L1ZDeXF3ZnpRLTNR


Temporada: 1
Nº de Capitulos: 13
Rip: HDiTunes
Formato: 720p
Contenedor: MKV
Audio: Latino e Inglés
Tamaño: 1.5GB





General
Format : Matroska
Format version : Version 2
File size : 1.45 GiB
Duration : 43mn 40s
Overall bit rate : 4 746 Kbps


Video
ID : 1
Format : AVC
Format/Info : Advanced Video Codec
Format profile : [email protected]
Format settings, CABAC : No
Format settings, ReFrames : 2 frames
Codec ID : V_MPEG4/ISO/AVC
Duration : 43mn 40s
Bit rate : 3 884 Kbps
Width : 1 280 pixels
Height : 720 pixels
Display aspect ratio : 16:9
Frame rate mode : Constant
Frame rate : 23.976 fps
Color space : YUV
Chroma subsampling : 4:2:0
Bit depth : 8 bits
Scan type : Progressive
Bits/(Pixel*Frame) : 0.176
Stream size : 1.18 GiB (82%)
Language : English
Default : No
Forced : No
Color primaries : BT.709
Transfer characteristics : BT.709
Matrix coefficients : BT.709

Audio #1
ID : 2
Format : AC-3
Format/Info : Audio Coding 3
Mode extension : CM (complete main)
Format settings, Endianness : Big
Codec ID : A_AC3
Duration : 43mn 40s
Bit rate mode : Constant
Bit rate : 384 Kbps
Channel(s) : 2 channels
Channel positions : Front: L R
Sampling rate : 48.0 KHz
Bit depth : 16 bits
Compression mode : Lossy
Stream size : 120 MiB (8%)
Title : AC3 2.0 @ 192 Kbps
Language : Spanish
Default : Yes
Forced : No

Audio #2
ID : 3
Format : AC-3
Format/Info : Audio Coding 3
Mode extension : CM (complete main)
Format settings, Endianness : Big
Codec ID : A_AC3
Duration : 43mn 40s
Bit rate mode : Constant
Bit rate : 384 Kbps
Channel(s) : 6 channels
Channel positions : Front: L C R, Side: L R, LFE
Sampling rate : 48.0 KHz
Bit depth : 16 bits
Compression mode : Lossy
Stream size : 120 MiB (8%)
Title : AC3 5.1 @ 384 Kbps
Language : English
Default : No
Forced : No



Links Temporada 1

Uploaded http://down.megadvdrip.net/de.php?h=aHR0cDovL3Bhc3RlYmluLmNvbS84YXE0dnNRbg==

· · · · · · · · · · · · · · · : : | Otras Temporadas | : : · · · · · · · · · · · · · · ·



★ Temporada 1 en HD Aquí
★ Temporada 2 en HD Aquí


☆ Temporada 1 en SD Aquí
☆ Temporada 2 en SD Aquí
The Killing T.1 Español [mega][Serie-Temporada Completa]

- The Killing Temporada 1 Completa dvdrip - the killing temporada 1 latino descarga mega

Deja tu comentario!